Добро пожаловать

Рады приветствовать Вас на форуме "Музыка без потери качества". У нас Вы сможете найти качественную музыку в форматах : APE.FLAC,WV,WAV (Lossless) и скачать ее бесплатно , одним файлом. loclec@yandex.ru


Ozon.ru

Музыка без потери качества

Информация о пользователе

Привет, Гость! Войдите или зарегистрируйтесь.


Вы здесь » Музыка без потери качества » Программы для работы со звуком » Имидж-файлы (Прожиг на CD)


Имидж-файлы (Прожиг на CD)

Сообщений 11 страница 19 из 19

11

Ну, вот, например, такой CUE:

.cue файл|Закрыть

[pre]REM GENRE "Symphonic Progressive Rock"
REM DATE 1979
REM DISCID 54082F07
REM COMMENT "ExactAudioCopy v1.0b1"
PERFORMER "True Myth"
TITLE "True Myth"
FILE "01 - Reach For The Heavens.wav" WAVE
  TRACK 01 AUDIO
    TITLE "Reach For The Heavens"
    PERFORMER "True Myth"
    INDEX 01 00:00:00
  TRACK 02 AUDIO
    TITLE "Light Years Before"
    PERFORMER "True Myth"
    INDEX 00 06:07:17
FILE "02 - Light Years Before.wav" WAVE
    INDEX 01 00:00:00
  TRACK 03 AUDIO
    TITLE "It's Got To Be"
    PERFORMER "True Myth"
    INDEX 00 06:08:16
FILE "03 - It's Got To Be.wav" WAVE
    INDEX 01 00:00:00
  TRACK 04 AUDIO
    TITLE "Time And Time Again"
    PERFORMER "True Myth"
    INDEX 00 03:15:14
FILE "04 - Time And Time Again.wav" WAVE
    INDEX 01 00:00:00
  TRACK 05 AUDIO
    TITLE "Space Promenade"
    PERFORMER "True Myth"
    INDEX 00 04:55:19
FILE "05 - Space Promenade.wav" WAVE
    INDEX 01 00:00:00
  TRACK 06 AUDIO
    TITLE "In The Mist"
    PERFORMER "True Myth"
    INDEX 00 04:29:16
FILE "06 - In The Mist.wav" WAVE
    INDEX 01 00:00:00
  TRACK 07 AUDIO
    TITLE "Song For The World"
    PERFORMER "True Myth"
    INDEX 00 04:56:53
FILE "07 - Song For The World.wav" WAVE
    INDEX 01 00:00:00
[/pre]

В папке лежат файлы:

Папка|Зыкрыть

[pre]True Myth.wav.cue
01 - Reach For The Heavens.wav
02 - Light Years Before.wav
03 - It's Got To Be.wav
04 - Time And Time Again.wav
05 - Space Promenade.wav
06 - In The Mist.wav
07 - Song For The World.wav
[/pre]

Если переделать этот CUE, чтобы выкинуть оттуда индексы пауз, то он начинает работать во всех программах, но паузы по сравнению с оригинальным диском тогда теряются.

P.S. Если я "новичок" на форуме, то это не значит, что я новичок в мат. части.

0

12

Все сделано абсолютно корректно. Все должно работать. Не надо ничего ни удалять, ни редактировать.
Во всяком случае, программой CueTools этот диск соберется в образ на раз.

Если все-таки что-то не получается, пришлите мне ссылку на "тела" (желательно пожатые во флак или ему подобное), я постараюсь помочь разобраться.

В вообще для проигрывания рекомендую Фубар 2000.

0

13

Вот как foobar2000 открывает этот CUE:

http://uploads.ru/t/K/M/w/KMwA2.png

Аналогично, DAEMON Tools Lite этот CUE не монтирует:

http://uploads.ru/t/I/6/y/I6yVl.png

Скачал CUETools и собрал из этого потрекового рипа образ диска. Буду теперь этой программой пользоваться. Спасибо за подсказку.

Отредактировано Faramant (2012-03-09 14:43:32)

0

14

Пользуюсь программой CueTools без проблем, проверено!

0

15

Из всех приведенных в описании имидж-файлов только ISO и использовал. А если нет разницы и проблем, зачем нужны остальные?

0

16

GriBandos написал(а):

Из всех приведенных в описании имидж-файлов только ISO и использовал. А если нет разницы и проблем, зачем нужны остальные?

ISO образ не характерен для аудио. Тут есть свои тонкости.

0

17

Gentlemen!
Вот задача посложнее.
Имеется файл с расширением .bin.
Известно, что это образ DTS - CD.
Понятно, что это дело "видит" Nero, и этот образ можно записать на "болванку". Но слушать придётся на проигрывателе с декодером DTS, и только при наличии многоканального усилителя, колонок, а "болванки" по большей части "кривые" и etc... Хотя вполне хватит простого стерео...Мне во всяком случае! Вообще, записывать "образы" на болванки и потом слушать на CD-плейере - прошлый век (а некоторые это даже считают извращением). Я уже давно воспроизвожу FLAC, Ape, Wav.pack файлы на ноутбуке при помощи Foobar2000 с ASIO-драйверами, далее - через USB-разъём вывожу сигнал во внешний блок, где имеется преобразователь USB в шину I2S, и, через шлейф - во внешний ЦАП на AD1853 от Analog Devices. Ну, а потом или на телефонный усилитель с головными телефонами, или на усилитель мощности с колонками-бэкхорнами. Качество гораздо лучше.
И тут попадается этот самый альбом в виде bin-файла. Foobar пишет - "неизвестный формат". Пробовал переконвертировать в WAV при помощи программы DTS2WAV - бесполезно. При воспроизведении такого файла - только сильный шум.
Кто сможет подсказать, как привести этот bin в вид FLAC или Ape? А то альбом довольно редкий и найти его в другом формате не удалось.

0

18

Venn, скачал я очень интересный для себя альбом Paul Revere & The Raiders - 1971 - Indian Reservation  а он в формате DTS. Но сам файл уже wav. Попробовал всеми обычными плейерами для звука, шум. Нашел на одном форуме рекомендацию использовать VLC Media Player. Проигрывает, но одним файлом подряд, т.к. с файлом разметки cue дружить не желает.
На одном из форумов по многоканальному звуку порекомендовали KMPlayer. Все нормально воспроизводит и разбивает файл на треки из cue. Но биновские файлы я не пробовал. Посмотри, не пойдет, так перегонишь в wav.

+1

19

Johney Walker, спасибо, коллега. Непременно попробую.

0


Вы здесь » Музыка без потери качества » Программы для работы со звуком » Имидж-файлы (Прожиг на CD)