Arthur "Big Boy" Crudup - Look On Yonder Wall (1997)

http://i67.fastpic.ru/big/2014/1102/a9/73db6d0eaf0db2d47627bf0ad75baba9.jpg

Genre: Blues
Format: flac (image, cue, log)
Quality: Lossless
Tracks 15
Total Time: 00:59:22
Total Size: 282,64 Мb
Label: Delmark Records

Tracklist:

01. Look On Yonder Wall - 3:33   
02. Questionnaire Blues - 3:58   
03. Keep Your Hands Off That Woman - 3:24   
04. That's All Right - 2:48   
05. Rock Me Mama - 2:28   
06. Katie May - 4:42   
07. Dust My Broom - 3:13   
08. Landlord Blues - 4:13   
09. Coal Black Mare - 4:19   
10. Life Is Just A Gamble - 3:07   
11. Walk Out On The Road - 3:06   
12. I'm All Alone - 6:14   
13. You'll Be Old Before Your Time - 4:13   
14. Ramblin' Blues - 5:15   
15. When I Lost My Baby (I Almost Lost My Mind) - 4:49

Log EAC

Exact Audio Copy V1.0 beta 1 from 15. November 2010

EAC extraction logfile from 20. September 2014, 3:45

Arthur "Big Boy" Crudup / Look On Yonder Wall

Used drive  : MATSHITADVD-RAM UJ8D2Q   Adapter: 0  ID: 0

Read mode               : Secure
Utilize accurate stream : Yes
Defeat audio cache      : No
Make use of C2 pointers : Yes

Read offset correction                      : 133
Overread into Lead-In and Lead-Out          : No
Fill up missing offset samples with silence : Yes
Delete leading and trailing silent blocks   : No
Null samples used in CRC calculations       : Yes
Used interface                              : Native Win32 interface for Win NT & 2000

Used output format              : Пользовательский кодировщик
Selected bitrate                : 768 kBit/s
Quality                         : High
Add ID3 tag                     : No
Command line compressor         : C:\Program Files (x86)\FLAC\flac.exe
Additional command line options : -6 -V -T "ARTIST=%a" -T "TITLE=%t" -T "ALBUM=%g" -T "DATE=%y" -T "TRACKNUMBER=%n" -T "GENRE=%m" -T "COMMENT=%e" %j--picture="%i"%j %s -o %d

TOC of the extracted CD

     Track |   Start  |  Length  | Start sector | End sector
    ---------------------------------------------------------
        1  |  0:00.00 |  3:35.09 |         0    |    16133   
        2  |  3:35.09 |  4:00.55 |     16134    |    34188   
        3  |  7:35.64 |  3:26.04 |     34189    |    49642   
        4  | 11:01.68 |  2:50.25 |     49643    |    62417   
        5  | 13:52.18 |  2:30.46 |     62418    |    73713   
        6  | 16:22.64 |  4:44.37 |     73714    |    95050   
        7  | 21:07.26 |  3:15.70 |     95051    |   109745   
        8  | 24:23.21 |  4:15.39 |    109746    |   128909   
        9  | 28:38.60 |  4:21.36 |    128910    |   148520   
       10  | 33:00.21 |  3:09.29 |    148521    |   162724   
       11  | 36:09.50 |  3:08.59 |    162725    |   176883   
       12  | 39:18.34 |  6:16.55 |    176884    |   205138   
       13  | 45:35.14 |  4:15.06 |    205139    |   224269   
       14  | 49:50.20 |  5:17.33 |    224270    |   248077   
       15  | 55:07.53 |  4:49.18 |    248078    |   269770   

Range status and errors

Selected range

     Filename C:\music\CD\Arthur 'Big Boy' Crudup - Look On Yonder Wall (1997)\Arthur ''Big Boy'' Crudup - Look On Yonder Wall.wav

     Peak level 100.0 %
     Extraction speed 0.4 X
     Range quality 99.9 %
     Copy CRC 9D60F040
     Copy OK

No errors occurred

End of status report

AUDIOCHECKER

AUDIOCHECKER v2.0 beta (build 457) - by Dester - opdester@freemail.hu
~~~~~~~~~~~~~~~~~~~~~~~~~~~~~~~~~~
-=== DO NOT EDIT THIS FILE! ===-

Path: ...\Arthur 'Big Boy' Crudup - Look On Yonder Wall (1997)

1 -=- Arthur ''Big Boy'' Crudup - Look On Yonder Wall.flac -=- CDDA (100%)

136470228