Beth Hart - 37 Days (2007)

http://s5.hostingkartinok.com/uploads/images/2013/03/b13bfe6d401145c2bd5445048b9427dc.jpg

Genre: Blues Rock
Format: flac (image, cue, log) / mp3
Quality: Lossless / 320kbps
Tracks 17
Total Time: 01:14:08
Total Size: 549,42 Мб / 183,64 Мб ( +5% Restoration)
Label: SYNDORA

Tracklist:

01. Good As It Gets - 3:57   
02. Jealousy - 4:27   
03. Beautiful Child - 3:55   
04. One Eyed Chicken - 4:51   
05. Sick - 4:37   
06. Face Forward - 2:42   
07. Soul Shine - 4:29   
08. Forever Young - 4:09   
09. Easy - 6:03   
10. Heaven Look Down - 3:20   
11. Missing You - 4:31   
12. Waterfalls - 3:51   
13. Crashing Down - 5:58   
14. At The Bottom - 4:53   

bonus track

15. L.A. Song - 4:07   
16. Learning To Live - 4:14   
17. Leave The Light On - 4:04

Log EAC

Exact Audio Copy V1.0 beta 3 from 29. August 2011

Отчёт EAC об извлечении, выполненном 10. марта 2013, 13:11

Beth Hart / 37 Days

Дисковод: HL-DT-STDVDRAM GSA-H44N   Adapter: 0  ID: 0

Режим чтения                 : Достоверность
Использование точного потока : Да
Отключение кэша аудио        : Да
Использование указателей C2  : Нет

Коррекция смещения при чтении                     : 667
Способность читать области Lead-in и Lead-out     : Нет
Заполнение пропущенных сэмплов тишиной            : Да
Удаление блоков с тишиной в начале и конце        : Нет
При вычислениях CRC использовались нулевые сэмплы : Да
Интерфейс                                         : Установленный внешний ASPI-интерфейс

Выходной формат          : Пользовательский кодировщик
Выбранный битрейт        : 1024 kBit/s
Качество                 : Высокий
Добавление ID3-тега      : Нет
Утилита сжатия           : C:\Program Files\FLAC\flac.exe
Дополнительные параметры : -6 -V -T "ARTIST=%artist%" -T "TITLE=%title%" -T "ALBUM=%albumtitle%" -T "DATE=%year%" -T "TRACKNUMBER=%tracknr%" -T "GENRE=%genre%" -T "COMMENT=%comment%" %hascover%--picture="%coverfile%"%hascover% %source% -o %dest%

TOC извлечённого CD

     Трек |   Старт  | Длительность | Начальный сектор | Конечный сектор
    ---------------------------------------------------------------------
       1  |  0:00.00 |    3:59.02   |           0      |      17926     
       2  |  3:59.02 |    4:29.10   |       17927      |      38111     
       3  |  8:28.12 |    3:57.17   |       38112      |      55903     
       4  | 12:25.29 |    4:53.32   |       55904      |      77910     
       5  | 17:18.61 |    4:39.47   |       77911      |      98882     
       6  | 21:58.33 |    2:44.17   |       98883      |     111199     
       7  | 24:42.50 |    4:31.70   |      111200      |     131594     
       8  | 29:14.45 |    4:11.55   |      131595      |     150474     
       9  | 33:26.25 |    6:05.62   |      150475      |     177911     
      10  | 39:32.12 |    3:22.25   |      177912      |     193086     
      11  | 42:54.37 |    4:33.32   |      193087      |     213593     
      12  | 47:27.69 |    3:53.10   |      213594      |     231078     
      13  | 51:21.04 |    6:00.70   |      231079      |     258148     
      14  | 57:21.74 |    4:55.40   |      258149      |     280313     
      15  | 62:17.39 |    4:09.70   |      280314      |     299058     
      16  | 66:27.34 |    4:16.25   |      299059      |     318283     
      17  | 70:43.59 |    4:04.25   |      318284      |     336608     

Характеристики диапазона извлечения и сообщения об ошибках

Выбранный диапазон

     Имя файла F:\Beth Hart\Beth Hart - 37 Days (2007)\Beth Hart - 37 Days.wav

     Пиковый уровень 100.0 %
     Скорость извлечения 7.5 X
     Качество диапазона 100.0 %
     CRC копии F86412CB
     Копирование... OK

Ошибок не произошло

AccurateRip: сводка

Трек  1  отсутствует в базе данных
Трек  2  отсутствует в базе данных
Трек  3  отсутствует в базе данных
Трек  4  отсутствует в базе данных
Трек  5  отсутствует в базе данных
Трек  6  отсутствует в базе данных
Трек  7  отсутствует в базе данных
Трек  8  отсутствует в базе данных
Трек  9  отсутствует в базе данных
Трек 10  отсутствует в базе данных
Трек 11  отсутствует в базе данных
Трек 12  отсутствует в базе данных
Трек 13  отсутствует в базе данных
Трек 14  отсутствует в базе данных
Трек 15  отсутствует в базе данных
Трек 16  отсутствует в базе данных
Трек 17  отсутствует в базе данных

Ни одного трека нет в базе AccurateRip

Конец отчёта

AUDIOCHECKER

AUDIOCHECKER v2.0 beta (build 457) - by Dester - opdester@freemail.hu
~~~~~~~~~~~~~~~~~~~~~~~~~~~~~~~~~~
-=== НЕ РЕДАКТИРУЙТЕ ЭТОТ ФАЙЛ! ===-

Путь: ...\Beth Hart - 37 Days (2007)

1 -=- Beth Hart - 37 Days.flac -=- CDDA (100%)

263511012

Download
Скрытый текст:

Для просмотра скрытого текста - войдите или зарегистрируйтесь.