Добро пожаловать

Рады приветствовать Вас на форуме "Музыка без потери качества". У нас Вы сможете найти качественную музыку в форматах : APE.FLAC,WV,WAV (Lossless) и скачать ее бесплатно , одним файлом.


Ozon.ru

Музыка без потери качества

Информация о пользователе

Привет, Гость! Войдите или зарегистрируйтесь.



Albert King

Сообщений 11 страница 13 из 13

11

Albert King - Blues At Sunset (1973)

http://s4.hostingkartinok.com/uploads/images/2012/11/cab6047f4adb7ce80633d6380b102f2f.jpg

Artist: Albert King
Title Of Album: Blues At Sunset
Year Of Release: 1973
Genre: Modern Electric Blues
Format: flac (image, cue, log) / mp3
Quality: Lossless / 320kbps
Tracks 9
Total Time: 00:44:54
Total Size: 324,15 Мб / 66,82 Мб ( +5% Restoration)
Label: Stax Records

Tracklist:

01. Match Box Blues (Wattstax) [Live] - 4:41   
02. Got To Be Some Changes Made (Wattstax) [Live] - 5:31   
03. I'll Play The Blues For You (Wattstax) [Live] - 5:40   
04. Killing Floor (Wattstax) [Live] - 3:37   
05. Angel Of Mercy (Wattstax) [Live] - 5:02   
06. Match Box Blues (Montreux) [Live] - 5:22   
07. Watermelon Man (Montreux) [Live] - 2:35   
08. Breaking Up Somebody's Home (Montreux) [Live] - 5:02   
09. Call It Stormy Monday (Montreux) [Live] - 7:24

Log EAC

Exact Audio Copy V1.0 beta 1 from 15. November 2010

Отчёт EAC об извлечении, выполненном 14. ноября 2012, 5:30

Albert King / Blues At Sunset

Дисковод: HL-DT-STDVDRAM GSA-H44N   Adapter: 2  ID: 0

Режим чтения                 : Достоверность
Использование точного потока : Да
Отключение кэша аудио        : Да
Использование указателей C2  : Нет

Коррекция смещения при чтении                     : 667
Способность читать области Lead-in и Lead-out     : Нет
Заполнение пропущенных сэмплов тишиной            : Да
Удаление блоков с тишиной в начале и конце        : Нет
При вычислениях CRC использовались нулевые сэмплы : Да
Интерфейс                                         : Встроенный Win32-интерфейс для Win NT/2000

Выходной формат          : Пользовательский кодировщик
Выбранный битрейт        : 1024 kBit/s
Качество                 : Высокий
Добавление ID3-тега      : Нет
Утилита сжатия           : C:\Program Files\Exact Audio Copy\FLAC\FLAC.EXE
Дополнительные параметры : -6 -V -T "ARTIST=%a" -T "TITLE=%t" -T "ALBUM=%g" -T "DATE=%y" -T "TRACKNUMBER=%n" -T "GENRE=%m" -T "COMMENT=%e" %j--picture="%i"%j %s -o %d

TOC извлечённого CD

     Трек |   Старт  | Длительность | Начальный сектор | Конечный сектор
    ---------------------------------------------------------------------
       1  |  0:00.00 |    4:41.58   |           0      |      21132     
       2  |  4:41.58 |    5:31.25   |       21133      |      45982     
       3  | 10:13.08 |    5:40.25   |       45983      |      71507     
       4  | 15:53.33 |    3:37.50   |       71508      |      87832     
       5  | 19:31.08 |    5:02.10   |       87833      |     110492     
       6  | 24:33.18 |    5:22.15   |      110493      |     134657     
       7  | 29:55.33 |    2:35.35   |      134658      |     146317     
       8  | 32:30.68 |    5:02.12   |      146318      |     168979     
       9  | 37:33.05 |   11:50.39   |      168980      |     222268     

Характеристики диапазона извлечения и сообщения об ошибках

Выбранный диапазон

     Имя файла F:\Albert King\Flac\Albert King - Blues At Sunset (1973)\Albert King - Blues At Sunset.wav

     Пиковый уровень 100.0 %
     Скорость извлечения 1.7 X
     Качество диапазона 100.0 %
     CRC копии 56FE72E1
     Копирование... OK

Ошибок не произошло

AccurateRip: сводка

Трек  1  отсутствует в базе данных
Трек  2  отсутствует в базе данных
Трек  3  отсутствует в базе данных
Трек  4  отсутствует в базе данных
Трек  5  отсутствует в базе данных
Трек  6  отсутствует в базе данных
Трек  7  отсутствует в базе данных
Трек  8  отсутствует в базе данных
Трек  9  отсутствует в базе данных

Ни одного трека нет в базе AccurateRip

Конец отчёта

AUDIOCHECKER

AUDIOCHECKER v2.0 beta (build 457) - by Dester - opdester@freemail.hu
~~~~~~~~~~~~~~~~~~~~~~~~~~~~~~~~~~
-=== НЕ РЕДАКТИРУЙТЕ ЭТОТ ФАЙЛ! ===-

Путь: ...\Albert King - Blues At Sunset (1973)

1 -=- Albert King - Blues At Sunset.flac -=- CDDA (100%)

18709956

0

12

Albert King - Bluesmasters (n/a)

http://s2.hostingkartinok.com/uploads/images/2012/11/8ceab83a78d4f4beb459f8f8f5889e30.jpg

Artist: Albert King
Title Of Album: Bluesmasters
Year Of Release:
Genre: Modern Electric Blues
Format: flac (image, cue, log) / mp3
Quality: Lossless / 320kbps
Tracks 12
Total Time: 01:07:29
Total Size: 436,85 Мб / 167,22 Мб ( +5% Restoration)
Label: Grand Records

Tracklist:

01. Cold Women With Warm Hearts - 4:07   
02. Truckload Of Lovin' - 4:33   
03. Cadillac Assembly Line - 4:23   
04. Angel Of Mercy - 5:52   
05. The Very Thought Of You - 4:14   
06. Call My Job - 4:25   
07. Good Time Charly - 4:41   
08. I'm Gonna Call You Soon As The Sun Goes Down - 8:38   
09. That's What The Blues Is All About - 5:10   
10. Love Shock - 3:59   
11. I'll Play The Blues For You - 6:44   
12. Blues At Sunrise - 10:43 

Log EAC

Exact Audio Copy V1.0 beta 1 from 15. November 2010

Отчёт EAC об извлечении, выполненном 14. ноября 2012, 7:37

Albert King / Bluesmasters

Дисковод: HL-DT-STDVDRAM GSA-H44N   Adapter: 2  ID: 0

Режим чтения                 : Достоверность
Использование точного потока : Да
Отключение кэша аудио        : Да
Использование указателей C2  : Нет

Коррекция смещения при чтении                     : 667
Способность читать области Lead-in и Lead-out     : Нет
Заполнение пропущенных сэмплов тишиной            : Да
Удаление блоков с тишиной в начале и конце        : Нет
При вычислениях CRC использовались нулевые сэмплы : Да
Интерфейс                                         : Встроенный Win32-интерфейс для Win NT/2000

Выходной формат          : Пользовательский кодировщик
Выбранный битрейт        : 1024 kBit/s
Качество                 : Высокий
Добавление ID3-тега      : Нет
Утилита сжатия           : C:\Program Files\Exact Audio Copy\FLAC\FLAC.EXE
Дополнительные параметры : -6 -V -T "ARTIST=%a" -T "TITLE=%t" -T "ALBUM=%g" -T "DATE=%y" -T "TRACKNUMBER=%n" -T "GENRE=%m" -T "COMMENT=%e" %j--picture="%i"%j %s -o %d

TOC извлечённого CD

     Трек |   Старт  | Длительность | Начальный сектор | Конечный сектор
    ---------------------------------------------------------------------
       1  |  0:00.00 |    4:09.44   |           0      |      18718     
       2  |  4:09.44 |    4:35.51   |       18719      |      39394     
       3  |  8:45.20 |    4:25.30   |       39395      |      59299     
       4  | 13:10.50 |    5:54.56   |       59300      |      85905     
       5  | 19:05.31 |    4:16.67   |       85906      |     105172     
       6  | 23:22.23 |    4:27.08   |      105173      |     125205     
       7  | 27:49.31 |    4:43.57   |      125206      |     146487     
       8  | 32:33.13 |    8:40.12   |      146488      |     185499     
       9  | 41:13.25 |    5:12.62   |      185500      |     208961     
      10  | 46:26.12 |    4:01.07   |      208962      |     227043     
      11  | 50:27.19 |    6:46.63   |      227044      |     257556     
      12  | 57:14.07 |   10:43.40   |      257557      |     305821     

Характеристики диапазона извлечения и сообщения об ошибках

Выбранный диапазон

     Имя файла F:\Albert King\Flac\Albert King - Bluesmasters\Albert King - Bluesmasters.wav

     Пиковый уровень 94.6 %
     Скорость извлечения 1.1 X
     Качество диапазона 100.0 %
     CRC копии F32974FB
     Копирование... OK

Ошибок не произошло

AccurateRip: сводка

Трек  1  : извлечено точно (доверие 2)  [27A5FC02]
Трек  2  : извлечено точно (доверие 2)  [B891246D]
Трек  3  : извлечено точно (доверие 2)  [ABD6ACF0]
Трек  4  : извлечено точно (доверие 2)  [34B35F5F]
Трек  5  : извлечено точно (доверие 2)  [CA536B38]
Трек  6  : извлечено точно (доверие 2)  [60514E87]
Трек  7  : извлечено точно (доверие 2)  [18827BA2]
Трек  8  : извлечено точно (доверие 2)  [1576C70C]
Трек  9  : извлечено точно (доверие 2)  [8820402F]
Трек 10  : извлечено точно (доверие 2)  [701C0602]
Трек 11  : извлечено точно (доверие 2)  [1A8A9D91]
Трек 12  : извлечено точно (доверие 2)  [C9F28172]

Все треки извлечены точно

Конец отчёта

AUDIOCHECKER

AUDIOCHECKER v2.0 beta (build 457) - by Dester - opdester@freemail.hu
~~~~~~~~~~~~~~~~~~~~~~~~~~~~~~~~~~
-=== НЕ РЕДАКТИРУЙТЕ ЭТОТ ФАЙЛ! ===-

Путь: ...\Albert King - Bluesmasters

1 -=- Albert King - Bluesmasters.flac -=- CDDA (85%)

6255524

0

13

Albert King - I Wanna Get Funky (1974)

http://s4.hostingkartinok.com/uploads/images/2012/11/10035f7390814882e965abfb7347b373.jpg

Artist: Albert King
Title Of Album: I Wanna Get Funky
Year Of Release: 1974
Genre: Modern Electric Blues
Format: flac (image, cue, log) / mp3
Quality: Lossless / 320kbps
Tracks 9
Total Time: 00:45:19
Total Size: 294,17 Мб / 112,53 Мб ( +5% Restoration)
Label: Stax Records

Tracklist:

01. I Wanna Get Funky - 4:11   
02. Playing On Me - 3:26   
03. Walking The Back Streets And Crying - 6:30   
04. 'Til My Back Ain't Got No Bone - 7:32   
05. Flat Tire - 4:46   
06. I Can't Hear Nothing But The Blues - 4:19   
07. Travelin' Man - 2:54   
08. Crosscut Saw - 7:47   
09. That's What The Blues Is All About - 3:54

Log EAC

Exact Audio Copy V1.0 beta 1 from 15. November 2010

Отчёт EAC об извлечении, выполненном 14. ноября 2012, 21:59

Albert King / I Wanna Get Funky

Дисковод: HL-DT-STDVDRAM GSA-H44N   Adapter: 2  ID: 0

Режим чтения                 : Достоверность
Использование точного потока : Да
Отключение кэша аудио        : Да
Использование указателей C2  : Нет

Коррекция смещения при чтении                     : 667
Способность читать области Lead-in и Lead-out     : Нет
Заполнение пропущенных сэмплов тишиной            : Да
Удаление блоков с тишиной в начале и конце        : Нет
При вычислениях CRC использовались нулевые сэмплы : Да
Интерфейс                                         : Встроенный Win32-интерфейс для Win NT/2000

Выходной формат          : Пользовательский кодировщик
Выбранный битрейт        : 1024 kBit/s
Качество                 : Высокий
Добавление ID3-тега      : Нет
Утилита сжатия           : C:\Program Files\Exact Audio Copy\FLAC\FLAC.EXE
Дополнительные параметры : -6 -V -T "ARTIST=%a" -T "TITLE=%t" -T "ALBUM=%g" -T "DATE=%y" -T "TRACKNUMBER=%n" -T "GENRE=%m" -T "COMMENT=%e" %j--picture="%i"%j %s -o %d

TOC извлечённого CD

     Трек |   Старт  | Длительность | Начальный сектор | Конечный сектор
    ---------------------------------------------------------------------
       1  |  0:00.00 |    4:11.40   |           0      |      18864     
       2  |  4:11.40 |    3:26.37   |       18865      |      34351     
       3  |  7:38.02 |    6:30.43   |       34352      |      63644     
       4  | 14:08.45 |    7:32.17   |       63645      |      97561     
       5  | 21:40.62 |    4:46.48   |       97562      |     119059     
       6  | 26:27.35 |    4:19.57   |      119060      |     138541     
       7  | 30:47.17 |    2:54.55   |      138542      |     151646     
       8  | 33:41.72 |    7:47.05   |      151647      |     186676     
       9  | 41:29.02 |    3:54.06   |      186677      |     204232     

Характеристики диапазона извлечения и сообщения об ошибках

Выбранный диапазон

     Имя файла F:\Albert King\Flac\Albert King - I Wanna Get Funky (1974)\Albert King - I Wanna Get Funky.wav

     Пиковый уровень 98.8 %
     Скорость извлечения 0.5 X
     Качество диапазона 100.0 %
     CRC копии 7A669119
     Копирование... OK

Ошибок не произошло

AccurateRip: сводка

Трек  1  отсутствует в базе данных
Трек  2  отсутствует в базе данных
Трек  3  отсутствует в базе данных
Трек  4  отсутствует в базе данных
Трек  5  отсутствует в базе данных
Трек  6  отсутствует в базе данных
Трек  7  отсутствует в базе данных
Трек  8  отсутствует в базе данных
Трек  9  отсутствует в базе данных

Ни одного трека нет в базе AccurateRip

Конец отчёта

AUDIOCHECKER

AUDIOCHECKER v2.0 beta (build 457) - by Dester - opdester@freemail.hu
~~~~~~~~~~~~~~~~~~~~~~~~~~~~~~~~~~
-=== НЕ РЕДАКТИРУЙТЕ ЭТОТ ФАЙЛ! ===-

Путь: ...\Albert King - I Wanna Get Funky (1974)

1 -=- Albert King - I Wanna Get Funky.flac -=- CDDA (100%)

242801284

0