Добро пожаловать

Рады приветствовать Вас на форуме "Музыка без потери качества". У нас Вы сможете найти качественную музыку в форматах : APE.FLAC,WV,WAV (Lossless) и скачать ее бесплатно , одним файлом.


Ozon.ru

Музыка без потери качества

Информация о пользователе

Привет, Гость! Войдите или зарегистрируйтесь.



Albert King

Сообщений 1 страница 10 из 13

1

Albert King - Born Under A Bad Sign (1967)

http://s6.hostingkartinok.com/uploads/images/2013/03/c7b4e85660b7fc258bed9656555a9abc.jpg

Artist: Albert King
Title Of Album: Born Under A Bad Sign
Year Of Release: 1967
Genre: Modern Electric Blues
Format: flac (image, cue, log) / mp3
Quality: Lossless / 320kbps
Tracks 11
Total Time: 00:34:35
Total Size: 259,21 Мб / 86,02 Мб ( +5% Restoration)
Label: Stax Records

Tracklist:

01. Born Under A Bad Sign - 2:47   
02. Crosscut Saw - 2:35   
03. Kansas City - 2:33   
04. Oh Pretty Woman - 2:48   
05. Down Don't Bother Me - 2:10   
06. The Hunter - 2:45   
07. I Almost Lost My Mind - 3:30   
08. Personal Manager - 4:31   
09. Laundromat Blues - 3:21   
10. As The Years Go Passing By - 3:48   
11. The Very Thought Of You - 3:47   

Log EAC

Exact Audio Copy V1.0 beta 1 from 15. November 2010

Отчёт EAC об извлечении, выполненном 10. ноября 2012, 6:51

Albert King / Born Under a Bad Sign

Дисковод: HL-DT-STDVDRAM GSA-H44N   Adapter: 2  ID: 0

Режим чтения                 : Достоверность
Использование точного потока : Да
Отключение кэша аудио        : Да
Использование указателей C2  : Нет

Коррекция смещения при чтении                     : 667
Способность читать области Lead-in и Lead-out     : Нет
Заполнение пропущенных сэмплов тишиной            : Да
Удаление блоков с тишиной в начале и конце        : Нет
При вычислениях CRC использовались нулевые сэмплы : Да
Интерфейс                                         : Встроенный Win32-интерфейс для Win NT/2000

Выходной формат          : Пользовательский кодировщик
Выбранный битрейт        : 1024 kBit/s
Качество                 : Высокий
Добавление ID3-тега      : Нет
Утилита сжатия           : C:\Program Files\Exact Audio Copy\FLAC\FLAC.EXE
Дополнительные параметры : -6 -V -T "ARTIST=%a" -T "TITLE=%t" -T "ALBUM=%g" -T "DATE=%y" -T "TRACKNUMBER=%n" -T "GENRE=%m" -T "COMMENT=%e" %j--picture="%i"%j %s -o %d

TOC извлечённого CD

     Трек |   Старт  | Длительность | Начальный сектор | Конечный сектор
    ---------------------------------------------------------------------
       1  |  0:02.00 |    2:49.62   |         150      |      12886     
       2  |  2:51.62 |    2:37.43   |       12887      |      24704     
       3  |  5:29.30 |    2:35.10   |       24705      |      36339     
       4  |  8:04.40 |    2:50.60   |       36340      |      49149     
       5  | 10:55.25 |    2:12.48   |       49150      |      59097     
       6  | 13:07.73 |    2:47.48   |       59098      |      71670     
       7  | 15:55.46 |    3:32.50   |       71671      |      87620     
       8  | 19:28.21 |    4:33.14   |       87621      |     108109     
       9  | 24:01.35 |    3:23.28   |      108110      |     123362     
      10  | 27:24.63 |    3:50.49   |      123363      |     140661     
      11  | 31:15.37 |    3:46.66   |      140662      |     157677     

Характеристики диапазона извлечения и сообщения об ошибках

Выбранный диапазон

     Имя файла F:\Albert King\Flac\Albert King - Born Under A Bad Sign (1967)\Albert King - Born Under a Bad Sign.wav

     Пиковый уровень 100.0 %
     Скорость извлечения 0.7 X
     Качество диапазона 100.0 %
     CRC копии 1E282FBC
     Копирование... OK

Ошибок не произошло

AccurateRip: сводка

Трек  1  отсутствует в базе данных
Трек  2  отсутствует в базе данных
Трек  3  отсутствует в базе данных
Трек  4  отсутствует в базе данных
Трек  5  отсутствует в базе данных
Трек  6  отсутствует в базе данных
Трек  7  отсутствует в базе данных
Трек  8  отсутствует в базе данных
Трек  9  отсутствует в базе данных
Трек 10  отсутствует в базе данных
Трек 11  отсутствует в базе данных

Ни одного трека нет в базе AccurateRip

Конец отчёта

AUDIOCHECKER

AUDIOCHECKER v2.0 beta (build 457) - by Dester - opdester@freemail.hu
~~~~~~~~~~~~~~~~~~~~~~~~~~~~~~~~~~
-=== НЕ РЕДАКТИРУЙТЕ ЭТОТ ФАЙЛ! ===-

Путь: ...\Albert King - Born Under A Bad Sign (1967)

1 -=- Albert King - Born Under a Bad Sign.flac -=- CDDA (100%)

156965588

0

2

Albert King - King Albert - New Orleans Heat (2009)

http://s6.hostingkartinok.com/uploads/images/2013/03/37b19d4a60153771677ad628e13d33fb.jpg

Artist: Albert King
Title Of Album: King Albert - New Orleans Heat
Year Of Release: 2009
Genre: Modern Electric Blues
Format: flac (image, cue, log) / mp3
Quality: Lossless / 320kbps
Tracks 17
Total Time: 01:16:49
Total Size: 505,16 Мб / 190,27 Мб ( +5% Restoration)
Label: Snap Records

Tracklist:

01. Love Shock - 4:01   
02. You Upset Me Babe - 4:13   
03. Chump Change - 3:39   
04. Let Me Rock You - 4:41   
05. Boot Lace - 5:52   
06. Love Mechanic - 3:57   
07. Call My Job - 4:25   
08. Good Time Charlie - 4:43   
09. Get Out Of My Life Woman - 3:39   
10. Born Under A Bad Sign - 3:25   
11. The Feeling - 4:57   
12. We All Wanna Boogie - 3:15   
13. The Very Thought Of You - 4:19   
14. I Got The Blues - 9:06   
15. I Get Evil - 3:55   
16. Angel Of Mercy - 5:51   
17. Flat Tyre - 2:51

EAC Log

Exact Audio Copy V1.0 beta 1 from 15. November 2010

Отчёт EAC об извлечении, выполненном 10. ноября 2012, 9:24

Albert King / King Albert - New Orleans Heat

Дисковод: HL-DT-STDVDRAM GSA-H44N   Adapter: 2  ID: 0

Режим чтения                 : Достоверность
Использование точного потока : Да
Отключение кэша аудио        : Да
Использование указателей C2  : Нет

Коррекция смещения при чтении                     : 667
Способность читать области Lead-in и Lead-out     : Нет
Заполнение пропущенных сэмплов тишиной            : Да
Удаление блоков с тишиной в начале и конце        : Нет
При вычислениях CRC использовались нулевые сэмплы : Да
Интерфейс                                         : Встроенный Win32-интерфейс для Win NT/2000

Выходной формат          : Пользовательский кодировщик
Выбранный битрейт        : 1024 kBit/s
Качество                 : Высокий
Добавление ID3-тега      : Нет
Утилита сжатия           : C:\Program Files\Exact Audio Copy\FLAC\FLAC.EXE
Дополнительные параметры : -6 -V -T "ARTIST=%a" -T "TITLE=%t" -T "ALBUM=%g" -T "DATE=%y" -T "TRACKNUMBER=%n" -T "GENRE=%m" -T "COMMENT=%e" %j--picture="%i"%j %s -o %d

TOC извлечённого CD

     Трек |   Старт  | Длительность | Начальный сектор | Конечный сектор
    ---------------------------------------------------------------------
       1  |  0:02.00 |    4:03.01   |         150      |      18375     
       2  |  4:05.01 |    4:14.74   |       18376      |      37499     
       3  |  8:20.00 |    3:41.56   |       37500      |      54130     
       4  | 12:01.56 |    4:43.57   |       54131      |      75412     
       5  | 16:45.38 |    5:54.52   |       75413      |     102014     
       6  | 22:40.15 |    3:59.22   |      102015      |     119961     
       7  | 26:39.37 |    4:27.18   |      119962      |     140004     
       8  | 31:06.55 |    4:45.12   |      140005      |     161391     
       9  | 35:51.67 |    3:41.35   |      161392      |     178001     
      10  | 39:33.27 |    3:27.41   |      178002      |     193567     
      11  | 43:00.68 |    4:58.74   |      193568      |     215991     
      12  | 47:59.67 |    3:17.39   |      215992      |     230805     
      13  | 51:17.31 |    4:21.01   |      230806      |     250381     
      14  | 55:38.32 |    9:07.66   |      250382      |     291472     
      15  | 64:46.23 |    3:57.33   |      291473      |     309280     
      16  | 68:43.56 |    5:53.57   |      309281      |     335812     
      17  | 74:37.38 |    2:51.08   |      335813      |     348645     

Характеристики диапазона извлечения и сообщения об ошибках

Выбранный диапазон

     Имя файла F:\Albert King\Flac\Albert King - King Albert - New Orleans Heat (2009)\Albert King - King Albert - New Orleans Heat.wav

     Пиковый уровень 98.8 %
     Скорость извлечения 0.2 X
     Качество диапазона 100.0 %
     CRC копии 5EA3AA25
     Копирование... OK

Ошибок не произошло

AccurateRip: сводка

Трек  1  отсутствует в базе данных
Трек  2  отсутствует в базе данных
Трек  3  отсутствует в базе данных
Трек  4  отсутствует в базе данных
Трек  5  отсутствует в базе данных
Трек  6  отсутствует в базе данных
Трек  7  отсутствует в базе данных
Трек  8  отсутствует в базе данных
Трек  9  отсутствует в базе данных
Трек 10  отсутствует в базе данных
Трек 11  отсутствует в базе данных
Трек 12  отсутствует в базе данных
Трек 13  отсутствует в базе данных
Трек 14  отсутствует в базе данных
Трек 15  отсутствует в базе данных
Трек 16  отсутствует в базе данных
Трек 17  отсутствует в базе данных

Ни одного трека нет в базе AccurateRip

Конец отчёта

AUDIOCHECKER

AUDIOCHECKER v2.0 beta (build 457) - by Dester - opdester@freemail.hu
~~~~~~~~~~~~~~~~~~~~~~~~~~~~~~~~~~
-=== НЕ РЕДАКТИРУЙТЕ ЭТОТ ФАЙЛ! ===-

Путь: ...\Albert King - King Albert - New Orleans Heat (2009)

1 -=- Albert King - King Albert - New Orleans Heat.flac -=- CDDA (100%)

163842804

Download
Скрытый текст:

Для просмотра скрытого текста - войдите или зарегистрируйтесь.

0

3

Albert King - Live Wire & Blues Power (1968)

http://s2.hostingkartinok.com/uploads/images/2012/11/88e0b83f2694f14a133c4ae99fdebd34.jpg

Artist: Albert King
Title Of Album: Live Wire & Blues Power
Year Of Release: 1968
Genre: Modern Electric Blues
Format: flac (image, cue, log) / mp3
Quality: Lossless / 320kbps
Tracks 6
Total Time: 00:38:12
Total Size: 290,10 Мб / 94,84 Мб ( +5% Restoration)
Label: Stax Records

Tracklist:

01. Watermelon Man - 4:04   
02. Blues Power - 10:16 
03. Night Stomp - 5:48   
04. Blues At Sunrise - 8:44   
05. Please Love Me - 3:58   
06. Look Out - 5:22

EAC Log

Exact Audio Copy V1.0 beta 1 from 15. November 2010

Отчёт EAC об извлечении, выполненном 10. ноября 2012, 10:26

Albert King / Live Wire.Blues Power

Дисковод: HL-DT-STDVDRAM GSA-H44N   Adapter: 2  ID: 0

Режим чтения                 : Достоверность
Использование точного потока : Да
Отключение кэша аудио        : Да
Использование указателей C2  : Нет

Коррекция смещения при чтении                     : 667
Способность читать области Lead-in и Lead-out     : Нет
Заполнение пропущенных сэмплов тишиной            : Да
Удаление блоков с тишиной в начале и конце        : Нет
При вычислениях CRC использовались нулевые сэмплы : Да
Интерфейс                                         : Встроенный Win32-интерфейс для Win NT/2000

Выходной формат          : Пользовательский кодировщик
Выбранный битрейт        : 1024 kBit/s
Качество                 : Высокий
Добавление ID3-тега      : Нет
Утилита сжатия           : C:\Program Files\Exact Audio Copy\FLAC\FLAC.EXE
Дополнительные параметры : -6 -V -T "ARTIST=%a" -T "TITLE=%t" -T "ALBUM=%g" -T "DATE=%y" -T "TRACKNUMBER=%n" -T "GENRE=%m" -T "COMMENT=%e" %j--picture="%i"%j %s -o %d

TOC извлечённого CD

     Трек |   Старт  | Длительность | Начальный сектор | Конечный сектор
    ---------------------------------------------------------------------
       1  |  0:02.00 |    4:06.12   |         150      |      18611     
       2  |  4:08.12 |   10:18.40   |       18612      |      65001     
       3  | 14:26.52 |    5:50.25   |       65002      |      91276     
       4  | 20:17.02 |    8:46.05   |       91277      |     130731     
       5  | 29:03.07 |    3:59.71   |      130732      |     148727     
       6  | 33:03.03 |    5:22.25   |      148728      |     172902     

Характеристики диапазона извлечения и сообщения об ошибках

Выбранный диапазон

     Имя файла F:\Albert King\Flac\Albert King - Live Wire Blues Power [Live] (1968)\Albert King - Live Wire.Blues Power.wav

     Пиковый уровень 98.4 %
     Скорость извлечения 0.9 X
     Качество диапазона 100.0 %
     CRC копии 70133C90
     Копирование... OK

Ошибок не произошло

AccurateRip: сводка

Трек  1  отсутствует в базе данных
Трек  2  отсутствует в базе данных
Трек  3  отсутствует в базе данных
Трек  4  отсутствует в базе данных
Трек  5  отсутствует в базе данных
Трек  6  отсутствует в базе данных

Ни одного трека нет в базе AccurateRip

Конец отчёта

AUDIOCHECKER

AUDIOCHECKER v2.0 beta (build 457) - by Dester - opdester@freemail.hu
~~~~~~~~~~~~~~~~~~~~~~~~~~~~~~~~~~
-=== НЕ РЕДАКТИРУЙТЕ ЭТОТ ФАЙЛ! ===-

Путь: ...\Albert King - Live Wire Blues Power [Live] (1968)

1 -=- Albert King - Live Wire.Blues Power.flac -=- CDDA (100%)

229733556

Download

Flac

Скрытый текст:

Для просмотра скрытого текста - войдите или зарегистрируйтесь.

0

4

Никогда не думал, что мне понравится современный электронный блюз! Спасибо!

0

5

Albert King - King Does The King's Things (1991)

http://s4.hostingkartinok.com/uploads/images/2012/11/af494b2963669aa9e461fe5786fd4a0d.jpg

Artist: Albert King
Title Of Album: Blues For Elvis: King Does The King's Things
Year Of Release: 1991
Genre: Modern Electric Blues
Format: flac (image, cue, log) / mp3
Quality: Lossless / 320kbps
Tracks 9
Total Time: 00:36:44
Total Size: 258,66 Мб / 233,65 Мб ( +5% Restoration)
Label: Stax Records

Tracklist:

01. Hound Dog - 4:03   
02. That's All Right - 4:09   
03. All Shook Up - 2:29   
04. Jailhouse Rock - 3:37   
05. Heartbreak Hotel - 6:06   
06. Don't Be Cruel - 3:27   
07. One Night - 4:17   
08. Blue Suede Shoes - 3:16   
09. Love Me Tender - 5:20

EAC Log

Exact Audio Copy V1.0 beta 1 from 15. November 2010

Отчёт EAC об извлечении, выполненном 11. ноября 2012, 9:25

Albert King / Blues For Elvis: King Does The King's Things

Дисковод: HL-DT-STDVDRAM GSA-H44N   Adapter: 2  ID: 0

Режим чтения                 : Достоверность
Использование точного потока : Да
Отключение кэша аудио        : Да
Использование указателей C2  : Нет

Коррекция смещения при чтении                     : 667
Способность читать области Lead-in и Lead-out     : Нет
Заполнение пропущенных сэмплов тишиной            : Да
Удаление блоков с тишиной в начале и конце        : Нет
При вычислениях CRC использовались нулевые сэмплы : Да
Интерфейс                                         : Встроенный Win32-интерфейс для Win NT/2000

Выходной формат          : Пользовательский кодировщик
Выбранный битрейт        : 1024 kBit/s
Качество                 : Высокий
Добавление ID3-тега      : Нет
Утилита сжатия           : C:\Program Files\Exact Audio Copy\FLAC\FLAC.EXE
Дополнительные параметры : -6 -V -T "ARTIST=%a" -T "TITLE=%t" -T "ALBUM=%g" -T "DATE=%y" -T "TRACKNUMBER=%n" -T "GENRE=%m" -T "COMMENT=%e" %j--picture="%i"%j %s -o %d

TOC извлечённого CD

     Трек |   Старт  | Длительность | Начальный сектор | Конечный сектор
    ---------------------------------------------------------------------
       1  |  0:00.00 |    4:06.52   |           0      |      18501     
       2  |  4:06.52 |    4:12.70   |       18502      |      37471     
       3  |  8:19.47 |    2:32.35   |       37472      |      48906     
       4  | 10:52.07 |    3:39.68   |       48907      |      65399     
       5  | 14:32.00 |    6:08.52   |       65400      |      93051     
       6  | 20:40.52 |    3:30.18   |       93052      |     108819     
       7  | 24:10.70 |    4:20.62   |      108820      |     128381     
       8  | 28:31.57 |    3:19.28   |      128382      |     143334     
       9  | 31:51.10 |    5:19.34   |      143335      |     167293     

Характеристики диапазона извлечения и сообщения об ошибках

Выбранный диапазон

     Имя файла F:\Albert King\Flac\Albert King - King Does The King's Things (1991)\Albert King - Blues For Elvis - King, Does The King's Things.wav

     Пиковый уровень 100.0 %
     Скорость извлечения 0.9 X
     Качество диапазона 100.0 %
     CRC копии 9779F4B1
     Копирование... OK

Ошибок не произошло

AccurateRip: сводка

Трек  1  отсутствует в базе данных
Трек  2  отсутствует в базе данных
Трек  3  отсутствует в базе данных
Трек  4  отсутствует в базе данных
Трек  5  отсутствует в базе данных
Трек  6  отсутствует в базе данных
Трек  7  отсутствует в базе данных
Трек  8  отсутствует в базе данных
Трек  9  отсутствует в базе данных

Ни одного трека нет в базе AccurateRip

Конец отчёта

AUDIOCHECKER

AUDIOCHECKER v2.0 beta (build 457) - by Dester - opdester@freemail.hu
~~~~~~~~~~~~~~~~~~~~~~~~~~~~~~~~~~
-=== НЕ РЕДАКТИРУЙТЕ ЭТОТ ФАЙЛ! ===-

Путь: ...\Albert King - King Does The King's Things (1991)

1 -=- Albert King - Blues For Elvis - King, Does The King's Things.flac -=- CDDA (99%)

220117156

Download

Flac

Скрытый текст:

Для просмотра скрытого текста - войдите или зарегистрируйтесь.

0

6

Albert King - Chronicle (1979)

http://s4.hostingkartinok.com/uploads/images/2012/11/c4f5e1fb9f7c398ccf44cca2b903515c.jpg

Artist: Albert King
Title Of Album: Chronicle
Year Of Release: 1979
Genre: Modern Electric Blues
Format: flac (image, cue, log) / mp3
Quality: Lossless / 320kbps
Tracks 13
Total Time: 00:48:47
Total Size: 338,35 Мб / 121,05 Мб ( +5% Restoration)
Label: Stax Records

Tracklist:

01. Can't You See What You're Doing To Me - 4:16   
02. Everybody Wants To Go To Heaven - 4:22   
03. Angel Of Mercy - 4:21   
04. I'll Play The Blues For You - 3:58   
05. Breaking Up Somebody's Home - 4:00   
06. That's What The Blues Is All About - 3:54   
07. If That Ain't A Reason (For Your Woman To Leave You) - 3:25   
08. That's What Love Will Make You Do - 3:59   
09. What It Is - 3:10   
10. Tin Pan Alley - 3:33   
11. Behind Closed Doors - 3:59   
12. Let Me Back In - 3:07   
13. If You Talk In Your Sleep - 2:43

Log EAC

Exact Audio Copy V1.0 beta 1 from 15. November 2010

Отчёт EAC об извлечении, выполненном 11. ноября 2012, 10:10

Albert King / Chronicle

Дисковод: HL-DT-STDVDRAM GSA-H44N   Adapter: 2  ID: 0

Режим чтения                 : Достоверность
Использование точного потока : Да
Отключение кэша аудио        : Да
Использование указателей C2  : Нет

Коррекция смещения при чтении                     : 667
Способность читать области Lead-in и Lead-out     : Нет
Заполнение пропущенных сэмплов тишиной            : Да
Удаление блоков с тишиной в начале и конце        : Нет
При вычислениях CRC использовались нулевые сэмплы : Да
Интерфейс                                         : Встроенный Win32-интерфейс для Win NT/2000

Выходной формат          : Пользовательский кодировщик
Выбранный битрейт        : 1024 kBit/s
Качество                 : Высокий
Добавление ID3-тега      : Нет
Утилита сжатия           : C:\Program Files\Exact Audio Copy\FLAC\FLAC.EXE
Дополнительные параметры : -6 -V -T "ARTIST=%a" -T "TITLE=%t" -T "ALBUM=%g" -T "DATE=%y" -T "TRACKNUMBER=%n" -T "GENRE=%m" -T "COMMENT=%e" %j--picture="%i"%j %s -o %d

TOC извлечённого CD

     Трек |   Старт  | Длительность | Начальный сектор | Конечный сектор
    ---------------------------------------------------------------------
       1  |  0:02.00 |    4:18.51   |         150      |      19550     
       2  |  4:20.51 |    4:24.20   |       19551      |      39370     
       3  |  8:44.71 |    4:23.00   |       39371      |      59095     
       4  | 13:07.71 |    4:00.46   |       59096      |      77141     
       5  | 17:08.42 |    4:02.16   |       77142      |      95307     
       6  | 21:10.58 |    3:56.31   |       95308      |     113038     
       7  | 25:07.14 |    3:27.13   |      113039      |     128576     
       8  | 28:34.27 |    4:01.48   |      128577      |     146699     
       9  | 32:36.00 |    3:12.18   |      146700      |     161117     
      10  | 35:48.18 |    3:35.30   |      161118      |     177272     
      11  | 39:23.48 |    4:01.41   |      177273      |     195388     
      12  | 43:25.14 |    3:09.05   |      195389      |     209568     
      13  | 46:34.19 |    2:43.19   |      209569      |     221812     

Характеристики диапазона извлечения и сообщения об ошибках

Выбранный диапазон

     Имя файла F:\Albert King\Flac\Albert King - Chronicle (1979)\Albert King - Chronicle.wav

     Пиковый уровень 98.7 %
     Скорость извлечения 0.3 X
     Качество диапазона 100.0 %
     CRC копии 230B58B5
     Копирование... OK

Ошибок не произошло

AccurateRip: сводка

Трек  1  отсутствует в базе данных
Трек  2  отсутствует в базе данных
Трек  3  отсутствует в базе данных
Трек  4  отсутствует в базе данных
Трек  5  отсутствует в базе данных
Трек  6  отсутствует в базе данных
Трек  7  отсутствует в базе данных
Трек  8  отсутствует в базе данных
Трек  9  отсутствует в базе данных
Трек 10  отсутствует в базе данных
Трек 11  отсутствует в базе данных
Трек 12  отсутствует в базе данных
Трек 13  отсутствует в базе данных

Ни одного трека нет в базе AccurateRip

Конец отчёта

AUDIOCHECKER

AUDIOCHECKER v2.0 beta (build 457) - by Dester - opdester@freemail.hu
~~~~~~~~~~~~~~~~~~~~~~~~~~~~~~~~~~
-=== НЕ РЕДАКТИРУЙТЕ ЭТОТ ФАЙЛ! ===-

Путь: ...\Albert King - Chronicle (1979)

1 -=- Albert King - Chronicle.flac -=- CDDA (100%)

30382212

0

7

Albert King - Thursday Night In San Francisco (1968)

http://s2.hostingkartinok.com/uploads/images/2012/11/38678895347eb1b77fa58b101fdff589.jpg

Artist: Albert King
Title Of Album: Thursday Night In San Francisco
Year Of Release: 1968
Genre: Modern Electric Blues
Format: flac (image, cue, log) / mp3
Quality: Lossless / 320kbps
Tracks 9
Total Time: 00:52:28
Total Size: 354,16 Мб / 130,14 Мб ( +5% Restoration)
Label: Stax Records

Tracklist:

01. San-Ho-Zay - 0:54   
02. You Upset Me, Baby - 4:51   
03. Call It Stormy Monday - 8:36   
04. Everyday I Have The Blues - 4:17   
05. Drifting Blues - 8:04   
06. I've Made Nights By Myself - 6:44   
07. Crosscut Saw - 3:48   
08. I'm Gonna Move To The Outskirts Of Town - 7:40   
09. Ooh-Ee-Baby - 7:34   

Log EAC

Exact Audio Copy V1.0 beta 1 from 15. November 2010

Отчёт EAC об извлечении, выполненном 12. ноября 2012, 5:38

Albert King / Thursday Night In San Francisco

Дисковод: HL-DT-STDVDRAM GSA-H44N   Adapter: 2  ID: 0

Режим чтения                 : Достоверность
Использование точного потока : Да
Отключение кэша аудио        : Да
Использование указателей C2  : Нет

Коррекция смещения при чтении                     : 667
Способность читать области Lead-in и Lead-out     : Нет
Заполнение пропущенных сэмплов тишиной            : Да
Удаление блоков с тишиной в начале и конце        : Нет
При вычислениях CRC использовались нулевые сэмплы : Да
Интерфейс                                         : Встроенный Win32-интерфейс для Win NT/2000

Выходной формат          : Пользовательский кодировщик
Выбранный битрейт        : 1024 kBit/s
Качество                 : Высокий
Добавление ID3-тега      : Нет
Утилита сжатия           : C:\Program Files\Exact Audio Copy\FLAC\FLAC.EXE
Дополнительные параметры : -6 -V -T "ARTIST=%a" -T "TITLE=%t" -T "ALBUM=%g" -T "DATE=%y" -T "TRACKNUMBER=%n" -T "GENRE=%m" -T "COMMENT=%e" %j--picture="%i"%j %s -o %d

TOC извлечённого CD

     Трек |   Старт  | Длительность | Начальный сектор | Конечный сектор
    ---------------------------------------------------------------------
       1  |  0:00.00 |    0:54.40   |           0      |       4089     
       2  |  0:54.40 |    1:15.61   |        4090      |       9775     
       3  |  2:10.26 |    8:23.44   |        9776      |      47544     
       4  | 10:33.70 |    4:16.68   |       47545      |      66812     
       5  | 14:50.63 |    3:35.72   |       66813      |      83009     
       6  | 18:26.60 |    4:22.44   |       83010      |     102703     
       7  | 22:49.29 |    2:21.34   |      102704      |     113312     
       8  | 25:10.63 |    2:21.34   |      113313      |     123921     
       9  | 27:32.22 |    2:21.34   |      123922      |     134530     

Характеристики диапазона извлечения и сообщения об ошибках

Выбранный диапазон

     Имя файла F:\Albert King\Flac\Albert King - Thursday Night In San Francisco (1968)\Albert King - Thursday Night In San Francisco.wav

     Пиковый уровень 97.8 %
     Скорость извлечения 0.5 X
     Качество диапазона 100.0 %
     CRC копии 55A751C5
     Копирование... OK

Ошибок не произошло

AccurateRip: сводка

Трек  1  отсутствует в базе данных
Трек  2  отсутствует в базе данных
Трек  3  отсутствует в базе данных
Трек  4  отсутствует в базе данных
Трек  5  отсутствует в базе данных
Трек  6  отсутствует в базе данных
Трек  7  отсутствует в базе данных
Трек  8  отсутствует в базе данных
Трек  9  отсутствует в базе данных

Ни одного трека нет в базе AccurateRip

Конец отчёта

AUDIOCHECKER

AUDIOCHECKER v2.0 beta (build 457) - by Dester - opdester@freemail.hu
~~~~~~~~~~~~~~~~~~~~~~~~~~~~~~~~~~
-=== НЕ РЕДАКТИРУЙТЕ ЭТОТ ФАЙЛ! ===-

Путь: ...\Albert King - Thursday Night In San Francisco (1968)

1 -=- Albert King - Thursday Night In San Francisco.flac -=- CDDA (99%)

89288644

0

8

Albert King - The Blues Don't Change (1977)

http://s1.hostingkartinok.com/uploads/images/2012/11/b4824e21b19d211c5712ce60775af575.jpg

Artist: Albert King
Title Of Album: The Blues Don't Change
Year Of Release: 1977
Genre: Modern Electric Blues
Format: flac (image, cue, log) / mp3
Quality: Lossless / 320kbps
Tracks 11
Total Time: 00:42:53
Total Size: 278,76 Мб / 106,26 Мб ( +5% Restoration)
Label: Stax Records

Tracklist:

01. The Blues Don't Change - 5:26   
02. I'm Doing Fine - 3:49   
03. Nice to Be Nice (Ain't That Nice) - 3:00   
04. Oh, Pretty Woman - 4:43   
05. King Of Kings - 3:26   
06. Feel The Need - 3:28   
07. Firing Line (I Don't Play with Your Woman, You Don't Play with Mine) - 3:42   
08. The Pinch Paid Off (Part 1) - 3:40   
09. The Pinch Paid Off (Part 2) - 4:48   
10. I Can't Stand The Rain - 2:50   
11. Ain't It Beautiful - 4:01

Log EAC

Exact Audio Copy V1.0 beta 1 from 15. November 2010

Отчёт EAC об извлечении, выполненном 12. ноября 2012, 6:59

Albert King / The Blues Don't Change

Дисковод: HL-DT-STDVDRAM GSA-H44N   Adapter: 2  ID: 0

Режим чтения                 : Достоверность
Использование точного потока : Да
Отключение кэша аудио        : Да
Использование указателей C2  : Нет

Коррекция смещения при чтении                     : 667
Способность читать области Lead-in и Lead-out     : Нет
Заполнение пропущенных сэмплов тишиной            : Да
Удаление блоков с тишиной в начале и конце        : Нет
При вычислениях CRC использовались нулевые сэмплы : Да
Интерфейс                                         : Встроенный Win32-интерфейс для Win NT/2000

Выходной формат          : Пользовательский кодировщик
Выбранный битрейт        : 1024 kBit/s
Качество                 : Высокий
Добавление ID3-тега      : Нет
Утилита сжатия           : C:\Program Files\Exact Audio Copy\FLAC\FLAC.EXE
Дополнительные параметры : -6 -V -T "ARTIST=%a" -T "TITLE=%t" -T "ALBUM=%g" -T "DATE=%y" -T "TRACKNUMBER=%n" -T "GENRE=%m" -T "COMMENT=%e" %j--picture="%i"%j %s -o %d

TOC извлечённого CD

     Трек |   Старт  | Длительность | Начальный сектор | Конечный сектор
    ---------------------------------------------------------------------
       1  |  0:00.00 |    5:26.08   |           0      |      24457     
       2  |  5:26.08 |    3:49.44   |       24458      |      41676     
       3  |  9:15.52 |    2:59.67   |       41677      |      55168     
       4  | 12:15.44 |    2:59.67   |       55169      |      68660     
       5  | 15:15.36 |    3:26.30   |       68661      |      84140     
       6  | 18:41.66 |    3:28.15   |       84141      |      99755     
       7  | 22:10.06 |    3:42.19   |       99756      |     116424     
       8  | 25:52.25 |    3:39.64   |      116425      |     132913     
       9  | 29:32.14 |    4:47.72   |      132914      |     154510     
      10  | 34:20.11 |    2:50.33   |      154511      |     167293     
      11  | 37:10.44 |    4:01.26   |      167294      |     185394     

Характеристики диапазона извлечения и сообщения об ошибках

Выбранный диапазон

     Имя файла F:\Albert King\Flac\Albert King - The Blues Don't Change (1977)\Albert King - The Blues Don't Change.wav

     Пиковый уровень 100.0 %
     Скорость извлечения 0.6 X
     Качество диапазона 100.0 %
     CRC копии 0C3BF008
     Копирование... OK

Ошибок не произошло

AccurateRip: сводка

Трек  1  отсутствует в базе данных
Трек  2  отсутствует в базе данных
Трек  3  отсутствует в базе данных
Трек  4  отсутствует в базе данных
Трек  5  отсутствует в базе данных
Трек  6  отсутствует в базе данных
Трек  7  отсутствует в базе данных
Трек  8  отсутствует в базе данных
Трек  9  отсутствует в базе данных
Трек 10  отсутствует в базе данных
Трек 11  отсутствует в базе данных

Ни одного трека нет в базе AccurateRip

Конец отчёта

AUDIOCHECKER

AUDIOCHECKER v2.0 beta (build 457) - by Dester - opdester@freemail.hu
~~~~~~~~~~~~~~~~~~~~~~~~~~~~~~~~~~
-=== НЕ РЕДАКТИРУЙТЕ ЭТОТ ФАЙЛ! ===-

Путь: ...\Albert King - The Blues Don't Change (1977)

1 -=- Albert King - The Blues Don't Change.flac -=- CDDA (100%)

56293060

Download

Flac

Скрытый текст:

Для просмотра скрытого текста - войдите или зарегистрируйтесь.

0

9

Albert King - Live (1992)

http://s2.hostingkartinok.com/uploads/images/2012/11/6600d889a5f83e704b1b2688457eb7ca.jpg

Artist: Albert King
Title Of Album: Live
Year Of Release: 1992
Genre: Modern Electric Blues
Format: flac (image, cue, log) / mp3
Quality: Lossless / 320kbps
Tracks 10
Total Time: 01:06:54
Total Size: 465,04 Мб / 165,77 Мб ( +5% Restoration)
Label: Charly Records

Tracklist:

01. Watermelon Man - Live - 3:44   
02. Don't Burn Down The Bridge - Live - 4:31   
03. Blues At Sunrise - Live - 10:26 
04. That's What The Blues Is All About - Live - 5:05   
05. Stormy Monday - Live - 7:24   
06. Kansas City - Live - 7:13   
07. I'm Gonna Call You As Soon As The Sun Goes Down - Live - 8:28   
08. As The Years Go Passing By - Live - 8:57   
09. Overall Junction - Live - 4:28   
10. I'll Play The Blues For You - Live - 6:38

Log EAC

Exact Audio Copy V1.0 beta 1 from 15. November 2010

Отчёт EAC об извлечении, выполненном 13. ноября 2012, 5:28

Albert King / Live

Дисковод: HL-DT-STDVDRAM GSA-H44N   Adapter: 2  ID: 0

Режим чтения                 : Достоверность
Использование точного потока : Да
Отключение кэша аудио        : Да
Использование указателей C2  : Нет

Коррекция смещения при чтении                     : 667
Способность читать области Lead-in и Lead-out     : Нет
Заполнение пропущенных сэмплов тишиной            : Да
Удаление блоков с тишиной в начале и конце        : Нет
При вычислениях CRC использовались нулевые сэмплы : Да
Интерфейс                                         : Встроенный Win32-интерфейс для Win NT/2000

Выходной формат          : Пользовательский кодировщик
Выбранный битрейт        : 1024 kBit/s
Качество                 : Высокий
Добавление ID3-тега      : Нет
Утилита сжатия           : C:\Program Files\Exact Audio Copy\FLAC\FLAC.EXE
Дополнительные параметры : -6 -V -T "ARTIST=%a" -T "TITLE=%t" -T "ALBUM=%g" -T "DATE=%y" -T "TRACKNUMBER=%n" -T "GENRE=%m" -T "COMMENT=%e" %j--picture="%i"%j %s -o %d

TOC извлечённого CD

     Трек |   Старт  | Длительность | Начальный сектор | Конечный сектор
    ---------------------------------------------------------------------
       1  |  0:00.32 |    3:44.50   |          32      |      16881     
       2  |  3:45.07 |    4:31.03   |       16882      |      37209     
       3  |  8:16.10 |   10:26.67   |       37210      |      84226     
       4  | 18:43.02 |    5:05.48   |       84227      |     107149     
       5  | 23:48.50 |    7:24.20   |      107150      |     140469     
       6  | 31:12.70 |    7:13.25   |      140470      |     172969     
       7  | 38:26.20 |    8:28.02   |      172970      |     211071     
       8  | 46:54.22 |    8:57.68   |      211072      |     251414     
       9  | 55:52.15 |    4:27.72   |      251415      |     271511     
      10  | 60:20.12 |    6:36.57   |      271512      |     301268     

Характеристики диапазона извлечения и сообщения об ошибках

Выбранный диапазон

     Имя файла F:\Albert King\Flac\Albert King - Live (1992)\Albert King - Live.wav

     Пиковый уровень 89.5 %
     Скорость извлечения 0.7 X
     Качество диапазона 100.0 %
     CRC копии 73F1E84B
     Копирование... OK

Ошибок не произошло

AccurateRip: сводка

Трек  1  отсутствует в базе данных
Трек  2  отсутствует в базе данных
Трек  3  отсутствует в базе данных
Трек  4  отсутствует в базе данных
Трек  5  отсутствует в базе данных
Трек  6  отсутствует в базе данных
Трек  7  отсутствует в базе данных
Трек  8  отсутствует в базе данных
Трек  9  отсутствует в базе данных
Трек 10  отсутствует в базе данных

Ни одного трека нет в базе AccurateRip

Конец отчёта

AUDIOCHECKER

AUDIOCHECKER v2.0 beta (build 457) - by Dester - opdester@freemail.hu
~~~~~~~~~~~~~~~~~~~~~~~~~~~~~~~~~~
-=== НЕ РЕДАКТИРУЙТЕ ЭТОТ ФАЙЛ! ===-

Путь: ...\Albert King - Live (1992)

1 -=- Albert King - Live.flac -=- CDDA (100%)

28271716

Download
Скрытый текст:

Для просмотра скрытого текста - войдите или зарегистрируйтесь.

0

10

Albert King - More Big Blues (2001)

http://s2.hostingkartinok.com/uploads/images/2012/11/d3d5242011a1ef5ff74467bac3b09d26.jpg

Artist: Albert King
Title Of Album: More Big Blues
Year Of Release: 2001
Genre: Modern Electric Blues
Format: flac (image, cue, log) / mp3
Quality: Lossless / 320kbps
Tracks 22
Total Time: 01:02:18
Total Size: 328,93 Мб / 154,65 Мб ( +5% Restoration)
Label: ACE Records

Tracklist:

01. Let's Have A Natural Ball - 2:56   
02. What Can I Do To Change Your Mind - 2:53   
03. I Get Evil - 2:30   
04. This Morning - 2:10   
05. I Walked All Night Long - 2:56   
06. Don't Throw Your Love On Me So Strong - 2:57   
07. Travelin' To California - 3:02   
08. I've Made Nights By Myself (1961) - 2:39   
09. Ooh-Ee Baby - 3:57   
10. Dyna Flow - 2:50   
11. Why Are You So Mean To Me - 2:52   
12. Just Plain Blues (Oo-Ee Baby) - 3:51   
13. The Time Has Come - 2:36   
14. Need You By My Side - 2:35   
15. Blues At Sunrise - 2:42   
16. I'll Do Anything You Say - 2:58   
17. Got To Be Some Changes Made - 2:13   
18. Old Blue Ribbon - 2:24   
19. I've Made Nights By Myself (1963) - 2:34   
20. Why Are You So Mean To Me (Tk 4) - 2:36   
21. The Time Has Come (Tk 1) - 3:34   
22. Blues At Sunrise - 2:33

Log EAC

Exact Audio Copy V1.0 beta 1 from 15. November 2010

Отчёт EAC об извлечении, выполненном 14. ноября 2012, 4:31

Albert King / More Big Blues

Дисковод: HL-DT-STDVDRAM GSA-H44N   Adapter: 2  ID: 0

Режим чтения                 : Достоверность
Использование точного потока : Да
Отключение кэша аудио        : Да
Использование указателей C2  : Нет

Коррекция смещения при чтении                     : 667
Способность читать области Lead-in и Lead-out     : Нет
Заполнение пропущенных сэмплов тишиной            : Да
Удаление блоков с тишиной в начале и конце        : Нет
При вычислениях CRC использовались нулевые сэмплы : Да
Интерфейс                                         : Встроенный Win32-интерфейс для Win NT/2000

Выходной формат          : Пользовательский кодировщик
Выбранный битрейт        : 1024 kBit/s
Качество                 : Высокий
Добавление ID3-тега      : Нет
Утилита сжатия           : C:\Program Files\Exact Audio Copy\FLAC\FLAC.EXE
Дополнительные параметры : -6 -V -T "ARTIST=%a" -T "TITLE=%t" -T "ALBUM=%g" -T "DATE=%y" -T "TRACKNUMBER=%n" -T "GENRE=%m" -T "COMMENT=%e" %j--picture="%i"%j %s -o %d

TOC извлечённого CD

     Трек |   Старт  | Длительность | Начальный сектор | Конечный сектор
    ---------------------------------------------------------------------
       1  |  0:02.00 |    2:57.69   |         150      |      13493     
       2  |  2:59.69 |    2:55.31   |       13494      |      26649     
       3  |  5:55.25 |    2:31.70   |       26650      |      38044     
       4  |  8:27.20 |    2:12.23   |       38045      |      47967     
       5  | 10:39.43 |    2:58.11   |       47968      |      61328     
       6  | 13:37.54 |    2:59.10   |       61329      |      74763     
       7  | 16:36.64 |    3:03.65   |       74764      |      88553     
       8  | 19:40.54 |    2:41.51   |       88554      |     100679     
       9  | 22:22.30 |    3:59.26   |      100680      |     118630     
      10  | 26:21.56 |    2:52.12   |      118631      |     131542     
      11  | 29:13.68 |    2:54.19   |      131543      |     144611     
      12  | 32:08.12 |    3:53.03   |      144612      |     162089     
      13  | 36:01.15 |    2:37.66   |      162090      |     173930     
      14  | 38:39.06 |    2:37.28   |      173931      |     185733     
      15  | 41:16.34 |    2:44.33   |      185734      |     198066     
      16  | 44:00.67 |    3:00.01   |      198067      |     211567     
      17  | 47:00.68 |    2:15.41   |      211568      |     221733     
      18  | 49:16.34 |    2:26.60   |      221734      |     232743     
      19  | 51:43.19 |    2:36.55   |      232744      |     244498     
      20  | 54:19.74 |    2:38.22   |      244499      |     256370     
      21  | 56:58.21 |    3:35.67   |      256371      |     272562     
      22  | 60:34.13 |    2:33.49   |      272563      |     284086     

Характеристики диапазона извлечения и сообщения об ошибках

Выбранный диапазон

     Имя файла F:\Albert King\Flac\Albert King - More Big Blues (2001)\Albert King - More Big Blues.wav

     Пиковый уровень 99.4 %
     Скорость извлечения 0.3 X
     Качество диапазона 100.0 %
     CRC копии 13A3C69E
     Копирование... OK

Ошибок не произошло

AccurateRip: сводка

Трек  1  отсутствует в базе данных
Трек  2  отсутствует в базе данных
Трек  3  отсутствует в базе данных
Трек  4  отсутствует в базе данных
Трек  5  отсутствует в базе данных
Трек  6  отсутствует в базе данных
Трек  7  отсутствует в базе данных
Трек  8  отсутствует в базе данных
Трек  9  отсутствует в базе данных
Трек 10  отсутствует в базе данных
Трек 11  отсутствует в базе данных
Трек 12  отсутствует в базе данных
Трек 13  отсутствует в базе данных
Трек 14  отсутствует в базе данных
Трек 15  отсутствует в базе данных
Трек 16  отсутствует в базе данных
Трек 17  отсутствует в базе данных
Трек 18  отсутствует в базе данных
Трек 19  отсутствует в базе данных
Трек 20  отсутствует в базе данных
Трек 21  отсутствует в базе данных
Трек 22  отсутствует в базе данных

Ни одного трека нет в базе AccurateRip

Конец отчёта

AUDIOCHECKER

AUDIOCHECKER v2.0 beta (build 457) - by Dester - opdester@freemail.hu
~~~~~~~~~~~~~~~~~~~~~~~~~~~~~~~~~~
-=== НЕ РЕДАКТИРУЙТЕ ЭТОТ ФАЙЛ! ===-

Путь: ...\Albert King - More Big Blues (2001)

1 -=- Albert King - More Big Blues.flac -=- CDDA (100%)

120660372

0